#TITLE:Odeo;
#SUBTITLE:Legend of The Mystical Ninja;
#ARTIST:Konami;
#TITLETRANSLIT:;
#SUBTITLETRANSLIT:;
#ARTISTTRANSLIT:;
#CREDIT:;
#BANNER:Oedo.png;
#BACKGROUND:oedo-bg.png;
#LYRICSPATH:;
#CDTITLE:!arsimCDtitle.png;
#MUSIC:Oedo.mp3;
#OFFSET:1.420;
#SAMPLESTART:13.680;
#SAMPLELENGTH:13.760;
#SELECTABLE:YES;
#BPMS:0.000=122.090;
#STOPS:;
#BGCHANGES:;
// cache tags:
#FIRSTBEAT:4.000;
#LASTBEAT:179.000;
#SONGFILENAME:Songs/Music V.I.P ^_^/Oedo (Arsimael)/Oedo.sm;
#HASMUSIC:1;
#HASBANNER:1;
#MUSICLENGTH:95.451;
// end cache tags

//---------------dance-single - Blank----------------
#NOTES:
     dance-single:
     Blank:
     Hard:
     10:
     0.849,0.750,0.230,1.000,0.712,374.000,22.000,171.000,0.000,2.000:
0000
0000
0000
0000
,
0200
0000
0000
0000
0000
0000
0000
0000
0000
0000
0000
0000
0320
0000
0000
0000
0032
0000
0000
0000
0000
0000
0013
0100
2000
0000
0000
0000
3200
0000
0000
0000
,
0320
0000
0000
0000
0000
0000
0000
0000
0000
0032
0000
0000
0013
0000
0000
0000
0000
0000
0100
0000
0010
0000
0100
0000
0020
0000
0000
0000
0000
0000
0000
0000
0000
0000
0000
0000
0230
0000
0000
0000
0000
0000
0320
0000
0000
0000
0000
0000
,
2030
0000
0000
0000
3200
0000
0320
0000
1030
0000
0001
0010
0200
0000
2300
0000
,
3200
0000
0000
0000
0000
0000
0000
0000
1300
0001
0010
0000
0100
0000
1000
0000
0200
0000
0000
0000
0000
0000
0000
0000
0000
0000
0000
0000
0000
0000
0000
0000
,
0320
0000
0000
0000
0000
0000
0000
0000
0000
1030
0001
0010
0200
0000
0000
0000
0000
0000
1300
0010
0100
1000
0000
0000
,
0020
0000
0000
0000
0000
0000
0000
0000
0000
0130
0001
0010
0200
0000
0000
0000
0000
0000
2300
0000
0000
3200
0000
0000
,
0320
0000
0000
0000
0000
0000
0000
0000
0000
0000
0000
0000
0032
0000
0000
0000
0023
0000
0000
0000
0000
0000
0000
0000
0130
0001
0010
0000
2000
0000
3200
0000
,
0320
0000
0000
0000
0000
0000
0031
0010
0100
1000
0010
0100
0001
0010
0100
1000
0010
0100
1000
0000
0000
0000
0000
0000
,
0200
0000
0000
0000
0000
0000
0000
0000
0000
0000
0000
0000
2300
0000
0000
0000
3020
0000
0000
0000
0000
0000
0031
0010
0200
0000
0000
0000
2300
0000
0000
0000
,
3020
0000
0000
0000
0000
0000
0000
0000
0000
0032
0000
0000
0023
0000
0000
0000
0000
0000
0130
0000
0010
0000
0100
0000
2000
0000
0000
0000
0000
0000
0000
0000
0000
0000
0000
0000
3200
0000
0000
0000
0000
0000
0320
0000
0000
0000
0000
0000
,
0032
0000
0000
0000
2003
0000
3200
0000
0320
0000
0032
0023
0230
0000
2300
0000
,
3200
0000
0000
0000
0000
0000
0000
0000
0310
0001
0010
0000
0200
0000
2300
0000
3200
0000
0000
0000
0000
0000
0000
0000
0000
0000
0000
0000
0000
0000
0000
0000
,
0320
0000
0000
0000
0000
0000
0000
0000
0000
0130
0001
0010
0200
0000
0000
0000
0000
0000
0320
0000
0000
2030
0000
0000
,
3200
0000
0000
0000
0000
0000
0000
0301
0010
0100
0010
0100
2000
0000
0000
0000
0000
0000
3200
0000
0000
0320
0000
0000
,
0032
0000
0000
0000
0000
0000
0000
0000
0000
0000
0000
0000
0000
0000
0000
0000
0000
0000
0203
0000
0000
0000
0000
0000
0302
0000
0000
0000
0000
0000
0103
0000
0010
0000
0100
0000
2000
0000
0000
0000
0000
0000
3200
0000
0000
0320
0000
0000
,
0032
0000
0000
0000
1000
0100
1000
0100
0010
0010
0000
1000
0010
0000
0100
0000
,
1013
0000
0000
0000
0100
0000
0100
0000
0100
0001
0010
0000
0100
0000
1000
0000
0101
0000
0101
0000
0000
0000
0101
0000
0101
0000
0000
0000
0100
0000
0010
0000
,
1001
0000
0010
0001
1100
0100
0010
0100
1010
1010
0100
1010
1020
0000
0000
0000
,
0032
0000
0000
0000
0000
0000
0000
0000
0000
0103
0001
0010
0200
0000
0000
0000
0000
0000
2300
0000
0000
3200
0000
0000
,
0320
0000
0000
0000
0000
0000
0000
0000
0000
0032
0000
0000
0023
0000
0000
0030
0000
0000
1000
0000
0001
0000
0010
0000
0200
0000
0000
0000
0000
0000
0000
0000
0000
0000
0000
0000
2300
0000
0000
0000
0000
0000
3200
0000
0000
0000
0000
0000
,
0320
0000
0000
0000
0000
0000
0000
0000
0000
0000
0000
0000
0000
0000
0000
0000
0000
0000
0032
0000
0000
0000
0000
0000
0023
0000
0000
0000
0000
0000
0130
0000
0001
0000
0010
0000
0200
0000
0000
0000
0000
0000
2300
0000
0000
3200
0000
0000
,
0320
0000
0000
0000
,
2030
0000
0000
0000
0000
0000
0000
0000
0000
0000
0000
0000
3200
0000
0000
0000
0320
0000
0000
0000
0000
0000
0130
0001
2000
0000
0000
0000
3200
0000
0000
0000
,
0320
0000
0000
0000
0000
0000
0000
0000
0000
0032
0000
0000
0023
0000
0000
0000
0000
0000
0130
0000
0001
0000
0100
0000
2000
0000
0000
0000
0000
0000
0000
0000
0000
0000
0000
0000
3200
0000
0000
0000
0000
0000
0320
0000
0000
0000
0000
0000
,
0032
0000
0000
0000
2003
0000
3200
0000
0320
0000
0032
0023
0230
0000
2300
0000
,
3200
0000
0000
0000
0000
0000
0000
0000
0310
0001
0010
0000
0100
0000
1000
0000
0200
0000
0000
0000
0000
0000
0000
0000
0000
0000
0000
0000
0000
0000
0000
0000
,
0320
0000
0000
0000
0000
0000
0000
0000
0000
0130
0001
0010
0200
0000
0000
0000
0000
0000
1300
0010
0100
2000
0000
0000
,
3020
0000
0000
0000
0000
0000
0000
0000
0000
1030
0001
0010
0200
0000
0000
0000
0000
0000
2300
0000
0000
3200
0000
0000
,
0320
0000
0000
0000
0000
0000
0000
0000
0000
0000
0000
0000
0000
0000
0000
0000
0000
0000
0032
0000
0000
0000
0000
0000
0023
0000
0000
0000
0000
0000
0000
0000
0000
0000
0000
0000
0130
0000
0001
0000
0010
0000
1000
0000
0000
0100
0000
0000
,
0020
0000
0000
0000
0000
0000
0031
0010
0100
1000
0010
0100
0001
0010
0100
1000
0010
0100
2000
0000
0000
0000
0000
3000
,
0200
0000
0000
0000
0000
0000
0000
0000
0000
0000
0000
0000
0320
0000
0000
0000
0032
0000
0000
0000
0000
0000
0013
0100
2000
0000
0000
0000
3200
0000
0000
0000
,
0320
0000
0000
0000
0000
0000
0000
0000
0000
0032
0000
0000
0203
0000
0000
0000
0000
0000
0310
0000
0001
0000
0010
0000
2000
0000
0000
0000
0000
0000
0000
0000
0000
0000
0000
0000
3020
0000
0000
0000
0000
0000
0230
0000
0000
0000
0000
0000
,
0302
0000
0000
0000
2003
0000
3200
0000
0320
0000
0032
0023
0230
0000
2300
0000
,
3200
0000
0000
0000
0000
0000
0000
0000
0310
0001
0010
0000
0100
0000
1000
0000
0200
0000
0000
0000
0000
0000
0000
0000
0000
0000
0000
0000
0000
0000
0000
0000
,
0320
0000
0000
0000
0000
0000
0000
0000
0000
0130
0001
0010
0200
0000
0000
0000
0000
0000
0320
0000
0000
2030
0000
0000
,
3020
0000
0000
0000
0000
0000
0030
0001
0010
0100
0010
0100
2000
0000
0000
0000
0000
0000
3200
0000
0000
0320
0000
0000
,
0032
0000
0000
0000
0000
0000
0000
0000
0000
0000
0000
0000
0000
0000
0000
0000
0000
0000
2003
0000
0000
0000
0000
0000
3002
0000
0000
0000
0000
0000
0013
0000
0100
0000
0010
0000
0001
0000
0000
0000
0000
0000
0200
0000
0000
0320
0000
0000
,
0032
0000
0000
0000
1000
0100
1000
0100
0010
0010
0000
1000
0010
0000
0100
0000
,
1103
0000
0000
0000
0010
0000
0010
0000
0010
0001
0010
0000
0100
0000
1000
0000
0101
0000
0101
0000
0000
0000
0101
0000
0101
0000
0000
0000
0100
0000
0010
0000
,
1100
0000
0100
0010
1001
1000
0010
0100
0101
0101
0010
0101
0201
0000
0000
0000
,
0302
0000
0000
0000
0000
0000
0000
0000
0000
0103
0010
0100
2000
0000
0000
0000
0000
0000
3002
0000
0000
0023
0000
0000
,
0230
0000
0000
0000
0000
0000
0000
0000
0000
2300
0000
0000
3020
0000
0000
0000
0000
0000
0130
0000
0001
0000
0010
0000
0200
0000
0000
0000
0000
0000
0000
0000
0000
0000
0000
0000
2300
0000
0000
0000
0000
0000
3200
0000
0000
0000
0000
0000
,
0320
0000
0000
0000
0000
0000
0000
0000
0000
0000
0000
0000
0000
0000
0000
0000
0000
0000
0032
0000
0000
0000
0000
0000
0203
0000
0000
0000
0000
0000
0310
0000
0001
0000
0010
0000
0200
0000
0000
0000
0000
0000
2300
0000
0000
3200
0000
0000
,
0320
0000
0000
0030
;
